» » Marc Jordan - Reckless Valentine

Marc Jordan - Reckless Valentine mp3 download

Marc Jordan - Reckless Valentine mp3 download Performer: Marc Jordan
Album: Reckless Valentine
Country: USA & Canada
Released: 1993
Size MP3: 1651 mb.
Size FLAC: 1274 mb.
Rating: 4.8/5
Votes: 326
Other Formats: MP4 MP2 VOX DXD AIFF AU MMF



Marc Wallace Jordan (born March 6, 1948), is an American-born Canadian singer-songwriter, record producer, session musician, and actor. Covering a wide variety of genres, he has written songs for a number of well-known artists, including Diana Ross, Rod Stewart, Cher, Bette Midler, Chicago, and Josh Groban. He was named best producer with Steven MacKinnon at the Juno Awards in 1994 for "Waiting for a Miracle" from Reckless Valentine

Reckless Valentine ‎(Cass, Album). Reckless Valentine ‎(CD, Album). Reckless Valentine ‎(CD, Album, RE). Café Records.

Cherry Beach Sound, Toronto, Ontario, Canada. CD - Sin-Drome Records, Sin-Drome

Marc Wallace Jordan (born 1948), is an American-born Canadian singer-songwriter, record producer, session musician, and actor.

Back Street Boy. Artist: Marc Jordan. Album: Reckless Valentine, 2006. Marc Jordan ‎– Reckless Valentine Label: Sin-Drome Records ‎– SD 8899 Format: CD, Album Country: USA & Canada Released: 1993. Has been played on. Canada 3. Wave.

New Album Both Sides out on April 5th. On A Perfect Day. Crucifix In Dreamland. Live: Now & Then. Make Believe Ballroom. Cool Jam Black Earth. Talking Through Pictures.

SongMeanings is a place for discussion and discovery.

Tracklist

Back Street Boy 5:11
Little Lambs 3:46
Waiting For A Miracle 5:48
(I) Must Have Left My Heart 4:33
All Show 5:18
Coronation Street 5:09
The Same Mistake 5:28
Rhythm Of My Heart 4:24
Tell Me You Love Me 5:47
I Held On Too Long 4:16

Versions

Category Artist Title (Format) Label Category Country Year
SD 8899 Marc Jordan Reckless Valentine ‎(CD, Album) Sin-Drome Records SD 8899 USA & Canada 1993
POCP-1320 Marc Jordan Reckless Valentine ‎(CD, Album) Sin-Drome Records POCP-1320 Japan 1993
PEG-CD-073 Marc Jordan Reckless Valentine ‎(CD, Album) Sin-Drome Records PEG-CD-073 Canada 1993
SDC 8899 Marc Jordan Reckless Valentine ‎(Cass, Album) Sin-Drome Records SDC 8899 Canada 1993
CR003 Marc Jordan Reckless Valentine ‎(CD, Album, RE) Café Records CR003 Canada Unknown


foobar2000 1.3.17 / Dynamic Range Meter 1.1.1log date: 2018-03-08 22:16:06--------------------------------------------------------------------------------Analyzed: Marc Jordan / Reckless Valentine--------------------------------------------------------------------------------DR Peak RMS Duration Track--------------------------------------------------------------------------------DR10 -1.08 dB -13.78 dB 5:14 01-Back Street BoyDR11 -0.15 dB -15.06 dB 3:49 02-Little LambsDR11 -0.11 dB -13.86 dB 5:52 03-Waiting For A MiracleDR12 -0.11 dB -14.28 dB 4:36 04-(I) Must Have Left My HeartDR12 -0.16 dB -14.89 dB 5:20 05-All ShowDR11 -0.09 dB -13.36 dB 5:13 06-Coronation StreetDR9 -0.12 dB -11.69 dB 5:31 07-The Same MistakeDR10 -0.13 dB -13.51 dB 4:27 08-Rhythm Of My HeartDR10 -0.12 dB -12.63 dB 5:51 09-Tell Me You Love MeDR12 -0.15 dB -15.01 dB 4:19 10-I Held On Too Long--------------------------------------------------------------------------------Number of tracks: 10Official DR value: DR11Samplerate: 44100 HzChannels: 2Bits per sample: 16Bitrate: 743 kbpsCodec: ALAC================================================================================