» » Pushkar - Inner Harvest

Pushkar - Inner Harvest mp3 download

Pushkar - Inner Harvest mp3 download Performer: Pushkar
Album: Inner Harvest
Country: Denmark
Released: 1986
Style: Ambient, New Age
Size MP3: 1565 mb.
Size FLAC: 1911 mb.
Rating: 4.2/5
Votes: 486
Other Formats: DTS RA AIFF VQF TTA APE MP2



Pushkar ‎– Inner Harvest. Label: Fønix Musik ‎– FMF CD 1001.

ALBUM, TITLE: Inner Harvest. Release year, date: 1986. Turning 06. Inner Harvest 07. Spring 08. Easy.

Pushkar Inner Harvest скачать и слушать. Spiritual Sound Clubb.

Pushkar, Inner Harvest Жанр: NewAge Носитель: CD Страна-производитель диска: Denmark Год издания: 1986 Издатель (лейбл): Fønix Musik Forlag Номер по каталогу: FMF CD 1001 Аудиокодек: FLAC . lac) Тип рипа: tracks+. cue Битрейт аудио: lossless Продолжительность: 00:50:42 Источник (релизер): свой диск Наличие сканов в содержимом раздачи: да Треклист: 1. Manamalei 2. Beginning 3. The Shore 4. Full Moon 5. Turning 6. Inner Harvest 7. Spring 8. wav" WAVE INDEX 01 00:00:00 TRACK 06 AUDIO TITLE "Inner Harvest" PERFORMER "Pushkar" INDEX 00 05:28:61 FILE "06 Inner Harvest. wav" WAVE INDEX 01 00:00:00 TRACK 07 AUDIO TITLE "Spring" PERFORMER "Pushkar" INDEX 00 05:56:71 FILE "07 Spring. wav" WAVE INDEX 01 00:00:00 TRACK 08 AUDIO TITLE "Easy" PERFORMER "Pushkar".

Слушать inner harvest онлайн. Keep It Real (D&BA Summer Selection 2013).

Pushkar - Inner Harvest '1986. Pushkar Related artists. Pushkar - Inner Harvest /Pushkar - Inner Harvest. Pushkar - Inner Harvest /07 Spring.

Inner Harvest, Valley Forge, Pennsylvania. Articles & Quarterlies for Inner Harvest Hypnosis, where Kas Sobey writes her latest musings on life, hypnosis, eft, nlp, and leading a peaceful life. 9 December 2017 ·. Upcoming SoulCollage® Workshop Thursday, December 14, 2017.

Lyrics & Chords of Inner Harvest by Pushkar from album Inner Harvest, 705 times played by 108 listeners - get pdf, listen similar. Mc Einar - Jul Det' Cool chords lyrics.  Det skete i de dage i november engang at de første kataloger satte hyggen i gang Det' jul, det' cool, det nu man hygger sig bedst det' julebal i Nisseland, familiernes.

Tracklist

A1 Manamalei 3:53
A2 Beginning 5:17
A3 The Shore 7:57
A4 Full Moon 8:23
B1 Turning 5:31
B2 Inner Harvest 5:53
B3 Spring 4:04
B4 Easy 9:03

Companies, etc.

  • Published By – Fønix Musik Forlag
  • Made By – Tewa Music
  • Copyright (c) – Nayano
  • Recorded At – Blue Lotus Studio

Credits

  • Cover, Design, Photography By – Flemming Bindslev
  • Photography By [Back Cover] – Sharon Urcuioli
  • Sounds [Nature Sounds Recorded Live By] – Pushkar, Vimal
  • Written-By, Classical Guitar, Twelve-String Guitar, Electric Bass, Zither, Bells, Flute [Bamboo], Panpipes, Chimes, Synthesizer [Prophet, Moog, Roland, Casio, Korg] – Pushkar

Notes

Recorded and mixed in Blue Lotus Studio, Christianshavn, Copenhagen.

Barcode and Other Identifiers

  • Rights Society: BIEM
  • Rights Society: n©b

Other versions

Category Artist Title (Format) Label Category Country Year
FMF LP 1001 Pushkar Inner Harvest ‎(LP, Album) Fønix Musik FMF LP 1001 Denmark 1986
FMF 1001 Pushkar Inner Harvest ‎(Cass, Album) Fønix Musik FMF 1001 Denmark 1986
FMF 1001 Pushkar Inner Harvest ‎(LP, Album) Fønix Musik FMF 1001 Denmark 1986
FMF CD 1001 Pushkar Inner Harvest ‎(CD, Album, RE, S/Edition) Fønix Musik FMF CD 1001 Denmark Unknown
FMF CD 1001 Pushkar Inner Harvest ‎(CD, Album, RE) Fønix Musik FMF CD 1001 Denmark 1993